Перейти к содержимому



- - - - -

Kitaro. 2001. Ancient


  • Вы не можете ответить в тему
  • Вы не можете создать новую тему
В теме одно сообщение

#1 OFFLINE   Гость

 

    Просто гость...

  • Пришельцы
  • PipPipPipPipPipPipPipPipPipPipPipPip
  • сообщений: 5 666
    Последний визит:
    03 Янв 2014 08:55
  • Пол:Не определился
  • Откуда:СССР
 

Отправлено 22 Июль 2011 - 10:56

Изображение
                                          
Исполнитель: Kitaro
Название:                                                Ancient
Запись: 2001
Жанр: New Age
Тип рипа: image+cue+eac.log+cover
Формат: WAVPack (.wv)
Битрейт: lossless
Контейнер: ISO
Продолжительность: 00:56:05
Размер файла: 328,68 mb

<div class="bbc_spoiler"><input type="button" class="bbc_spoiler_show" value="Показать"/><span class="spoiler_title">Композиции: </span><div class="bbc_spoiler_wrapper"><div class="bbc_spoiler_content" style="display: none">
01.Prologue (0:36)
02.Main Theme NILE (4:10)
03.Ancient Of Wind (2:02)
04.Ritual Dance (3:36)
05.Water Of Mystery (3:08)
06.Tumba Dance (4:39)
07.Wave From Ancient (2:56)
08.Spirit Of Harp (2:59)
09.Great Pyramid (3:54)
10.Mysterious Triangle (4:12)
11.ITONAMI (5:51)
12.Unicorn (3:46)
13.Crystal Sand (3:38)
14.Dholavira (5:05)
15.End Theme BEYOND (5:35)
Изображение
</div></div></div>

Доп. информация:   Все тэги, ключая превью (front, back, cd), прошиты. Covers найдены в сети.  

Релиз от: Изображение

Kitaro. 2001. Ancient  

<div class="bbc_spoiler"><input type="button" class="bbc_spoiler_show" value="Показать"/><span class="spoiler_title"> Log  EAC </span><div class="bbc_spoiler_wrapper"><div class="bbc_spoiler_content" style="display: none"> Exact Audio Copy V1.0 beta 2 from 29. April 2011

Отчёт EAC об извлечении, выполненном 21. июля 2011, 19:55

Kitaro / Ancient

Дисковод: Optiarc DVD RW AD-7173S   Adapter: 2  ID: 0

Режим чтения                 : Достоверность
Использование точного потока : Да
Отключение кэша аудио        : Да
Использование указателей C2  : Нет

Коррекция смещения при чтении                     : 48
Способность читать области Lead-in и Lead-out     : Нет
Заполнение пропущенных сэмплов тишиной            : Да
Удаление блоков с тишиной в начале и конце        : Нет
При вычислениях CRC использовались нулевые сэмплы : Да
Интерфейс                                         : Встроенный Win32-интерфейс для Win NT/2000

Выходной формат          : Пользовательский кодировщик
Выбранный битрейт        : 1024 kBit/s
Качество                 : Высокий
Добавление ID3-тега      : Нет
Утилита сжатия           : C:\Documents and Settings\Администратор\Рабочий стол\Новая папка\для релизов\Exact Audio Copy\wavpack-4.60.1\wavpack.exe
Дополнительные параметры : -h  %source%  %dest%


TOC извлечённого CD

     Трек |   Старт  | Длительность | Начальный сектор | Конечный сектор
    ---------------------------------------------------------------------
       1  |  0:00.00 |    0:35.47   |           0      |       2671      
       2  |  0:35.47 |    4:10.30   |        2672      |      21451      
       3  |  4:46.02 |    2:01.60   |       21452      |      30586      
       4  |  6:47.62 |    3:35.70   |       30587      |      46781      
       5  | 10:23.57 |    3:07.43   |       46782      |      60849      
       6  | 13:31.25 |    4:39.05   |       60850      |      81779      
       7  | 18:10.30 |    2:56.05   |       81780      |      94984      
       8  | 21:06.35 |    2:59.12   |       94985      |     108421      
       9  | 24:05.47 |    3:53.53   |      108422      |     125949      
      10  | 27:59.25 |    4:11.52   |      125950      |     144826      
      11  | 32:11.02 |    5:50.53   |      144827      |     171129      
      12  | 38:01.55 |    3:46.00   |      171130      |     188079      
      13  | 41:47.55 |    3:37.42   |      188080      |     204396      
      14  | 45:25.22 |    5:04.70   |      204397      |     227266      
      15  | 50:30.17 |    5:35.03   |      227267      |     252394      


Характеристики диапазона извлечения и сообщения об ошибках

Выбранный диапазон

     Имя файла C:\Музыка\emule-rus.net\Kitaro.2001.Ancient\Kitaro - Ancient.wav

     Пиковый уровень 100.0 %
     Скорость извлечения 5.0 X
     Качество диапазона 100.0 %
     CRC теста F119744B
     CRC копии F119744B
     Копирование... OK

Ошибок не произошло


AccurateRip: сводка

Трек  1  : извлечено точно (доверие 2)  [3D9C5B8B]  (AR v1)
Трек  2  : извлечено точно (доверие 2)  [5F445B9B]  (AR v1)
Трек  3  : извлечено точно (доверие 2)  [AF44384C]  (AR v1)
Трек  4  : извлечено точно (доверие 2)  [691D9680]  (AR v1)
Трек  5  : извлечено точно (доверие 2)  [4FB1487B]  (AR v1)
Трек  6  : извлечено точно (доверие 2)  [9BFFE6FA]  (AR v1)
Трек  7  : извлечено точно (доверие 2)  [7B4199BA]  (AR v1)
Трек  8  : извлечено точно (доверие 2)  [3E02F1F0]  (AR v1)
Трек  9  : извлечено точно (доверие 2)  [39D51647]  (AR v1)
Трек 10  : извлечено точно (доверие 2)  [92E5004E]  (AR v1)
Трек 11  : извлечено точно (доверие 2)  [F93EB160]  (AR v1)
Трек 12  : извлечено точно (доверие 2)  [0C532BB6]  (AR v1)
Трек 13  : извлечено точно (доверие 2)  [D61F30F8]  (AR v1)
Трек 14  : извлечено точно (доверие 2)  [7AAEA469]  (AR v1)
Трек 15  : извлечено точно (доверие 2)  [58D953DD]  (AR v1)

Все треки извлечены точно

Конец отчёта

==== Контрольная сумма отчёта B2C5A6D13E6B3A6F8AD3DB6B0E14F93FEDCA77E2AEC2DA7B0DD46623D91EB14D ====

Изображение
</div></div></div>

#2 OFFLINE   Гость

 

    Просто гость...

  • Пришельцы
  • PipPipPipPipPipPipPipPipPipPipPipPip
  • сообщений: 5 666
    Последний визит:
    03 Янв 2014 08:55
  • Пол:Не определился
  • Откуда:СССР
 

Отправлено 24 Июль 2011 - 01:37







Количество пользователей, читающих эту тему: 1

0 пользователей, 1 гостей, 0 анонимных