Перейти к содержимому



* * * * * 1 Голосов

Kingdom Come. 1991. Hands Of Time


  • Вы не можете ответить в тему
  • Вы не можете создать новую тему
В теме одно сообщение

#1 OFFLINE   Гость

 

    Просто гость...

  • Пришельцы
  • PipPipPipPipPipPipPipPipPipPipPipPip
  • сообщений: 5 666
    Последний визит:
    03 Янв 2014 08:55
  • Пол:Не определился
  • Откуда:СССР
 

Отправлено 19 Январь 2011 - 12:08

Изображение
                                                                          
Исполнитель: Kingdom Come
Название: Hands Of Time
Запись:                                                             1991  
Жанр: Hard Rock  
Тип рипа: image+cue+eac.log+cover
Формат: WAVPack (.wv)
Битрейт:                                                          lossless
Контейнер: ISO
Продолжительность: 42:24
Размер файла: 285,83 mb
<div class="bbc_spoiler"><input type="button" class="bbc_spoiler_show" value="Показать"/><span class="spoiler_title">Композиции: </span><div class="bbc_spoiler_wrapper"><div class="bbc_spoiler_content" style="display: none">
01. I've Been Trying (04:50)
02. Should I (05:35)
03. You'll Never Know (03:26)
04. Both Of Us (03:09)
05. Stay (03:07)
06. Blood On The Land (04:09)
07. Shot Down (03:06)
08. You're Not The Only... I Know (04:16)
09. Do I Belong (03:31)
10. Can't Deny (03:28)
11. Hands Of Time (3:25)<div class="bbc_spoiler_clear" align="center">Скрыть</div></div></div></div>
<div class="bbc_spoiler"><input type="button" class="bbc_spoiler_show" value="Показать"/><span class="spoiler_title"> Log  EAC</span><div class="bbc_spoiler_wrapper"><div class="bbc_spoiler_content" style="display: none">
Exact Audio Copy V0.99 prebeta 5 from 4. May 2009

Отчёт EAC об извлечении, выполненном 17. января 2011, 22:30

Kingdom Come / Hands Of Time

Дисковод: Optiarc DVD RW AD-7173S   Adapter: 2  ID: 0

Режим чтения                 : Достоверность
Использование точного потока : Да
Отключение кэша аудио        : Да
Использование указателей C2  : Нет

Коррекция смещения при чтении                     : 48
Способность читать области Lead-in и Lead-out     : Нет
Заполнение пропущенных сэмплов тишиной            : Да
Удаление блоков с тишиной в начале и конце        : Нет
При вычислениях CRC использовались нулевые сэмплы : Да
Интерфейс                                         : Встроенный Win32-интерфейс для Win NT/2000

Выходной формат          : Пользовательский кодировщик
Выбранный битрейт        : 1024 kBit/s
Качество                 : Высокий
Добавление ID3-тэга      : Да
Утилита сжатия           : C:\Program Files\Exact Audio Copy\wavpack-4.60.1\wavpack.exe
Дополнительные параметры :  -h %s %d


TOC извлечённого CD

     Трек |   Старт  | Длительность | Начальный сектор | Конечный сектор
    ---------------------------------------------------------------------
       1  |  0:00.32 |    4:51.60   |          32      |      21916      
       2  |  4:52.17 |    5:38.73   |       21917      |      47339      
       3  | 10:31.15 |    3:26.12   |       47340      |      62801      
       4  | 13:57.27 |    3:11.53   |       62802      |      77179      
       5  | 17:09.05 |    3:09.25   |       77180      |      91379      
       6  | 20:18.30 |    4:13.15   |       91380      |     110369      
       7  | 24:31.45 |    3:09.15   |      110370      |     124559      
       8  | 27:40.60 |    4:16.35   |      124560      |     143794      
       9  | 31:57.20 |    3:32.22   |      143795      |     159716      
      10  | 35:29.42 |    3:29.33   |      159717      |     175424      
      11  | 38:59.00 |    3:25.27   |      175425      |     190826      


Характеристики диапазона извлечения и сообщения об ошибках

Выбранный диапазон

     Имя файла C:\Музыка\emule-rus.net\Kingdom Come - Hands Of Time.wav

     Пиковый уровень 100.0 %
     Качество диапазона 99.9 %
     CRC теста 9161FB45
     CRC копии 9161FB45
     Копирование... OK

Ошибок не произошло


AccurateRip: сводка

Трек  1  точное извлечение (доверие 2)  [64D1E443]
Трек  2  точное извлечение (доверие 2)  [A353707E]
Трек  3  точное извлечение (доверие 2)  [51718D65]
Трек  4  точное извлечение (доверие 2)  [C17EF99A]
Трек  5  точное извлечение (доверие 2)  [627FB411]
Трек  6  точное извлечение (доверие 2)  [08B187B1]
Трек  7  точное извлечение (доверие 2)  [A5EE9D21]
Трек  8  точное извлечение (доверие 2)  [5C0BD414]
Трек  9  точное извлечение (доверие 2)  [BD90737E]
Трек 10  точное извлечение (доверие 2)  [8B09F482]
Трек 11  точное извлечение (доверие 2)  [114F7A88]

Все треки извлечены точно

Конец отчёта
<div class="bbc_spoiler_clear" align="center">Скрыть</div></div></div></div>
Доп. информация: Все теги, включая превьюшки (front, back, cd), прошиты. В раздаче присутствует буклет с текстами песен.

Релиз от: Изображение

Kingdom Come. 1991. Hands Of Time.

#2 OFFLINE   Гость

 

    Просто гость...

  • Пришельцы
  • PipPipPipPipPipPipPipPipPipPipPipPip
  • сообщений: 5 666
    Последний визит:
    03 Янв 2014 08:55
  • Пол:Не определился
  • Откуда:СССР
 

Отправлено 03 Сентябрь 2011 - 20:15







Количество пользователей, читающих эту тему: 0

0 пользователей, 0 гостей, 0 анонимных