Перейти к содержимому



* * * * * 1 Голосов

Vangelis. 1996. Oceanic


  • Вы не можете ответить в тему
  • Вы не можете создать новую тему
В этой теме нет ответов

#1 OFFLINE   Гость

 

    Просто гость...

  • Пришельцы
  • PipPipPipPipPipPipPipPipPipPipPipPip
  • сообщений: 5 666
    Последний визит:
    03 Янв 2014 08:55
  • Пол:Не определился
  • Откуда:СССР
 

Отправлено 19 Декабрь 2010 - 13:48

Изображение
                                                                          
Исполнитель: Vangelis  
Название: Oceanic
Запись:                                                             1996  
Жанр: Electronic/New Age  
Тип рипа: image+cue+eac.log+cover
Формат: WAVPack                                                      (.wv)
Битрейт: lossless
Контейнер: ISO
Продолжительность: 50:42  
Размер файла: 253,97 mb
<div class="bbc_spoiler"><input type="button" class="bbc_spoiler_show" value="Показать"/><span class="spoiler_title">Композиции: </span><div class="bbc_spoiler_wrapper"><div class="bbc_spoiler_content" style="display: none">
01. Bon voyage 02:33
02. Sirens' Whispering 07:59
03. Dreams of Surf 02:43
04. Spanish Harbour 06:42
05. Islands of the Orient 07:24
06. Fields of Coral 07:44
07. Aquatic Dance 03:44
08. Memories of Blue 05:40
09. Song of the Seas 06:12<div class="bbc_spoiler_clear" align="center">Скрыть</div></div></div></div>
<div class="bbc_spoiler"><input type="button" class="bbc_spoiler_show" value="Показать"/><span class="spoiler_title"> Log  EAC</span><div class="bbc_spoiler_wrapper"><div class="bbc_spoiler_content" style="display: none">
Exact Audio Copy V0.99 prebeta 5 from 4. May 2009

Отчёт EAC об извлечении, выполненном 17. декабря 2010, 23:51

Vangelis / Oceanic

Дисковод: Optiarc DVD RW AD-7173S   Adapter: 2  ID: 0

Режим чтения                 : Достоверность
Использование точного потока : Да
Отключение кэша аудио        : Да
Использование указателей C2  : Нет

Коррекция смещения при чтении                     : 48
Способность читать области Lead-in и Lead-out     : Нет
Заполнение пропущенных сэмплов тишиной            : Да
Удаление блоков с тишиной в начале и конце        : Нет
При вычислениях CRC использовались нулевые сэмплы : Да
Интерфейс                                         : Встроенный Win32-интерфейс для Win NT/2000

Выходной формат          : Пользовательский кодировщик
Выбранный битрейт        : 1024 kBit/s
Качество                 : Высокий
Добавление ID3-тэга      : Да
Утилита сжатия           : C:\Program Files\Exact Audio Copy\wavpack-4.60.1\wavpack.exe
Дополнительные параметры :  -h %s %d


TOC извлечённого CD

     Трек |   Старт  | Длительность | Начальный сектор | Конечный сектор
    ---------------------------------------------------------------------
       1  |  0:00.00 |    2:32.69   |           0      |      11468      
       2  |  2:32.69 |    7:58.74   |       11469      |      47392      
       3  | 10:31.68 |    2:43.24   |       47393      |      59641      
       4  | 13:15.17 |    6:42.34   |       59642      |      89825      
       5  | 19:57.51 |    7:24.14   |       89826      |     123139      
       6  | 27:21.65 |    7:43.59   |      123140      |     157923      
       7  | 35:05.49 |    3:43.64   |      157924      |     174712      
       8  | 38:49.38 |    5:40.29   |      174713      |     200241      
       9  | 44:29.67 |    6:12.09   |      200242      |     228150      


Характеристики диапазона извлечения и сообщения об ошибках

Выбранный диапазон

     Имя файла C:\Музыка\emule-rus.net\Vangelis - Oceanic.wav

     Пиковый уровень 99.9 %
     Качество диапазона 99.9 %
     CRC теста 08D7177B
     CRC копии 08D7177B
     Копирование... OK

Ошибок не произошло

AccurateRip: сводка

Трек  1  нет в базе данных
Трек  2  нет в базе данных
Трек  3  нет в базе данных
Трек  4  нет в базе данных
Трек  5  нет в базе данных
Трек  6  нет в базе данных
Трек  7  нет в базе данных
Трек  8  нет в базе данных
Трек  9  нет в базе данных

Ни одного трека нет в базе AccurateRip

Конец отчёта

<div class="bbc_spoiler_clear" align="center">Скрыть</div></div></div></div>

Релиз от: Изображение

Vangelis. 1996. Oceanic





Количество пользователей, читающих эту тему: 0

0 пользователей, 0 гостей, 0 анонимных